+ l983798900.com »  :::: Dubbed Zone (Dubbed English in Hindi) » English Movies Dubbed in Hindi
|- Ride Along 2 2016 720p Esub BluRay Dual Audio English Hindi GOPISAHI


Ride Along 2 2016 720p Esub BluRay Dual Audio English Hindi GOPISAHI

0 Members and 1 Guest are viewing this topic.

February 12, 2018, 02:37:15 PM
  • Addic7ed
  • Special Member
  • ****
  • Topic Author
  • Thank You: 331
  • Reputation: 76
  • Activity:
    63%
  • Country: in
  • Posts: 665
  • Topics: 623
  • Join Date: Oct 2013
  • ShareSpark Member

General
Unique ID                      : 155631339722674079427810828634013560385 (0x751581788CD9E4AB7B06F9019943EE41)
Complete name                  : F:\DUB\Ride Along 2 2016 720p Esub BluRay  Dual Audio English Hindi GOPISAHI\Ride Along 2 2016 GOPISAHI (1).mkv
Format                         : Matroska
Format version                 : Version 4 / Version 2
File size                      : 562 MiB
Duration                       : 1 h 41 min
Overall bit rate               : 774 kb/s
Movie name                     : Ride Along 2 2016 GOPISAHI
Encoded date                   : UTC 2018-02-12 04:00:54
Writing application            : mkvmerge v19.0.0 ('Brave Captain') 32-bit
Writing library                : libebml v1.3.5 + libmatroska v1.4.8

Video
ID                             : 1
Format                         : AVC
Format/Info                    : Advanced Video Codec
Format profile                 : [email protected]
Format settings                : CABAC / 16 Ref Frames
Format settings, CABAC         : Yes
Format settings, ReFrames      : 16 frames
Codec ID                       : V_MPEG4/ISO/AVC
Duration                       : 1 h 41 min
Bit rate                       : 600 kb/s
Width                          : 1 280 pixels
Height                         : 534 pixels
Display aspect ratio           : 2.40:1
Original display aspect ratio  : 2.40:1
Frame rate mode                : Constant
Frame rate                     : 23.976 (24000/1001) FPS
Color space                    : YUV
Chroma subsampling             : 4:2:0
Bit depth                      : 8 bits
Scan type                      : Progressive
Bits/(Pixel*Frame)             : 0.037
Stream size                    : 436 MiB (78%)
Title                          : Ride Along 2 2016 GOPISAHI
Writing library                : x264 core 155 r2893 b00bcaf
Encoding settings              : cabac=1 / ref=16 / deblock=1:-1:-1 / analyse=0x3:0x133 / me=umh / subme=10 / psy=1 / psy_rd=1.00:0.15 / mixed_ref=1 / me_range=24 / chroma_me=1 / trellis=2 / 8x8dct=1 / cqm=0 / deadzone=21,11 / fast_pskip=1 / chroma_qp_offset=-3 / threads=12 / lookahead_threads=2 / sliced_threads=0 / nr=0 / decimate=1 / interlaced=0 / bluray_compat=0 / constrained_intra=0 / bframes=8 / b_pyramid=2 / b_adapt=2 / b_bias=0 / direct=3 / weightb=1 / open_gop=0 / weightp=2 / keyint=240 / keyint_min=24 / scenecut=40 / intra_refresh=0 / rc_lookahead=60 / rc=2pass / mbtree=1 / bitrate=600 / ratetol=1.0 / qcomp=0.60 / qpmin=0 / qpmax=69 / qpstep=4 / cplxblur=20.0 / qblur=0.5 / ip_ratio=1.40 / aq=1:1.00
Language                       : English
Default                        : Yes
Forced                         : No
Color range                    : Limited
Color primaries                : BT.709
Transfer characteristics       : BT.709
Matrix coefficients            : BT.709

Audio #1
ID                             : 2
Format                         : AAC
Format/Info                    : Advanced Audio Codec
Format profile                 : LC
Codec ID                       : A_AAC-2
Duration                       : 1 h 41 min
Bit rate                       : 81.8 kb/s
Channel(s)                     : 6 channels
Channel positions              : Front: L C R, Side: L R, LFE
Sampling rate                  : 44.1 kHz
Frame rate                     : 43.066 FPS (1024 SPF)
Compression mode               : Lossy
Stream size                    : 59.4 MiB (11%)
Title                          : GOPISAHI
Language                       : English
Default                        : Yes
Forced                         : No

Audio #2
ID                             : 4
Format                         : AAC
Format/Info                    : Advanced Audio Codec
Format profile                 : LC
Codec ID                       : A_AAC-2
Duration                       : 1 h 41 min
Bit rate                       : 89.2 kb/s
Channel(s)                     : 6 channels
Channel positions              : Front: L C R, Side: L R, LFE
Sampling rate                  : 44.1 kHz
Frame rate                     : 43.066 FPS (1024 SPF)
Compression mode               : Lossy
Stream size                    : 64.7 MiB (12%)
Title                          : GOPISAHI
Language                       : Hindi

Text
Language                       : English













Share this topic on FacebookShare this topic on GoogleShare this topic on MySpaceShare this topic on TwitterShare this topic on Yahoo

« Last Edit: February 12, 2018, 03:06:09 PM by jattsahi2 »


Thanks given by:


February 13, 2018, 05:46:59 PM
Reply #1
  • Semi Newbie
  • **
  • Thank You: 0
  • Reputation: 0
  • Activity:
    0.4%
  • Posts: 5
  • Topics: 0
  • Join Date: Jul 2012
  • ShareSpark Member
Its not dual audio English -  Hindi its just in English :wall:

February 13, 2018, 07:06:20 PM
Reply #2
  • Addic7ed
  • Special Member
  • ****
  • Topic Author
  • Thank You: 331
  • Reputation: 76
  • Activity:
    63%
  • Country: in
  • Posts: 665
  • Topics: 623
  • Join Date: Oct 2013
  • ShareSpark Member

Tags:
 

Related Topics

  Subject / Started by Replies Last post
2 Replies
460 Views
Last post September 11, 2017, 02:19:21 PM
by jattsahi2
0 Replies
326 Views
Last post October 19, 2017, 09:26:55 PM
by jattsahi2
0 Replies
685 Views
Last post November 27, 2017, 11:43:52 AM
by jattsahi2
0 Replies
212 Views
Last post December 20, 2017, 06:45:24 AM
by jattsahi2
0 Replies
240 Views
Last post December 28, 2017, 11:28:22 AM
by jattsahi2




Back to top