+ l983798900.com »  :::: Dubbed Zone (Dubbed English in Hindi) » English Movies Dubbed in Hindi
|- Meet Joe Black 1998 720p Esub BlyRay Dual Audio English Hindi GOPISAHI


Meet Joe Black 1998 720p Esub BlyRay Dual Audio English Hindi GOPISAHI

0 Members and 1 Guest are viewing this topic.

February 13, 2018, 11:57:34 AM
  • Addic7ed
  • Special Member
  • ****
  • Topic Author
  • Thank You: 331
  • Reputation: 76
  • Activity:
    63%
  • Country: in
  • Posts: 665
  • Topics: 623
  • Join Date: Oct 2013
  • ShareSpark Member
Meet Joe Black 1998 720p Esub BlyRay  Dual Audio English Hindi GOPISAHI



Format                         : Matroska

Format version                 : Version 4 / Version 2

File size                      : 991 MiB

Duration                       : 3 h 0 min

Overall bit rate               : 768 kb/s

Movie name                     : Meet Joe Black 1998 GOPISAHI


Video

Format                         : AVC

Codec ID                       : V_MPEG4/ISO/AVC

Duration                       : 3 h 0 min

Bit rate                       : 600 kb/s

Width                          : 1 280 pixels

Height                         : 688 pixels

Display aspect ratio           : 1.85:1

Frame rate mode                : Constant

Frame rate                     : 23.976 (24000/1001) FPS

Stream size                    : 775 MiB (78%)

Title                          : GOPISAHI

Writing library                : x264 core 155 r2893 b00bcaf


Audio #1

Format                         : AAC

Duration                       : 3 h 0 min

Bit rate                       : 83.3 kb/s

Channel(s)                     : 6 channels

Channel positions              : Front: L C R, Side: L R, LFE

Sampling rate                  : 44.1 kHz

Frame rate                     : 43.066 FPS (1024 SPF)

Compression mode               : Lossy

Stream size                    : 108 MiB (11%)

Title                          : GOPISAHI

Language                       : English


Audio #2

Format                         : AAC

Duration                       : 3 h 0 min

Bit rate                       : 81.7 kb/s

Channel(s)                     : 6 channels

Channel positions              : Front: L C R, Side: L R, LFE

Sampling rate                  : 44.1 kHz

Frame rate                     : 43.066 FPS (1024 SPF)

Compression mode               : Lossy

Delay relative to video        : 917 ms

Stream size                    : 105 MiB (11%)

Title                          : GOPISAHI

Language                       : Hindi


Text

Language                       : English















Share this topic on FacebookShare this topic on GoogleShare this topic on MySpaceShare this topic on TwitterShare this topic on Yahoo

« Last Edit: February 14, 2018, 06:09:13 AM by jattsahi2 »



Tags:
 

Related Topics

  Subject / Started by Replies Last post
0 Replies
242 Views
Last post January 25, 2018, 08:57:19 AM
by jattsahi2
1 Replies
379 Views
Last post January 28, 2018, 11:13:47 AM
by shaikzeesh
1 Replies
181 Views
Last post January 31, 2018, 02:47:41 PM
by JackRoSe
1 Replies
259 Views
Last post February 01, 2018, 10:39:18 AM
by JackRoSe
0 Replies
129 Views
Last post February 19, 2018, 09:12:23 AM
by jattsahi2




Back to top